Baaghi 2 (2018) [Hindi HDRip x264 700MB] Team TR torrent download

seeders: 633
leechers: 369
updated:
Added ago by RockerS ***** in Movies
Torrent Downloaded 10 times.
Info Hash: D3B6E2B90DADF9802D2AC6428215C8CE274BC88A


Torrent Files

Baaghi 2 (2018) [Hindi - HDRip - x264 - 700MB] - Team TR (Size: 698.6 MB)
  Baaghi 2 (2018) [Hindi - HDRip - x264 - 700MB] - Team TR 698.6 MB

Torrent Description



Baaghi 2 (2018) [Hindi - HDRip - x264 - 700MB] - Team TR


SAMPLE

SCREENSHOTS

Team TamilRockers Exclusive

Source : DesireMovies (Thanks a lot)

MEDIA INFO
General
Format                         : Matroska
Format version                 : Version 4 / Version 2
File size                      : 704 MiB
Duration                       : 2 h 27 min
Overall bit rate               : 666 kb/s

Video
ID                             : 1
Format                         : AVC
Format/Info                    : Advanced Video Codec
Duration                       : 2 h 27 min
Bit rate                       : 618 kb/s
Width                          : 720 pixels
Height                         : 320 pixels
Display aspect ratio           : 2.25:1
Frame rate mode                : Constant
Frame rate                     : 25.000 FPS
Stream size                    : 651 MiB (93%)
Language                       : Hindi
Default                        : Yes
Forced                         : No


Audio
ID                             : 2
Format                         : MPEG Audio
Format version                 : Version 1
Format profile                 : Layer 3
Format settings                : Joint stereo / MS Stereo
Codec ID                       : A_MPEG/L3
Codec ID/Hint                  : MP3
Duration                       : 2 h 27 min
Bit rate mode                  : Constant
Bit rate                       : 48.0 kb/s
Channel(s)                     : 2 channels
Sampling rate                  : 48.0 kHz
Frame rate                     : 41.667 FPS (1152 SPF)
Compression mode               : Lossy
Delay relative to video        : -23 ms
Stream size                    : 50.7 MiB (7%)
Language                       : Hindi
Default                        : Yes
Forced                         : No




Related Torrents

torrent name size age seed leech
698.7 MB 6 minutes 784 272
455.3 MB 6 minutes 312 136
2.0 GB 6 minutes 206 497
623.97 MB 16 minutes 168 394
Kamasutra mp4
Posted by   Guest  in  Video
411.5 MB 8 minutes 282 188

Sharing Widget


Download torrent
698.6 MB
seeders:1214
leechers:386
Baaghi 2 (2018) [Hindi - HDRip - x264 - 700MB] - Team TR



To share this torrent use the code below and insert it into comments, status messages, forum posts or your signature.

Torrent: Baaghi 2 (2018) [Hindi - HDRip - x264 - 700MB] - Team TR

Comments

Latest Searches