Atlanta (2016) S02E07 (1080p AMZN WEB DL x265 HEVC 10bit EAC3 6 0 RZeroX) [QxR] torrent download

seeders: 511
leechers: 273
updated:
Added ago by QxR ***** in TV
Torrent Downloaded 10 times.
Info Hash: F2FB1C2DB2E98705C1998CB92ADB1DFD1B5A352E


Torrent Files

Atlanta (2016) - S02E07 (1080p AMZN WEB-DL x265 HEVC 10bit EAC3 6 0 RZeroX) [QxR] (Size: 1.2 GB)
  Atlanta (2016) - S02E07 (1080p AMZN WEB-DL x265 HEVC 10bit EAC3 6 0 RZeroX) [QxR] 1.2 GB

Torrent Description







Media Information

Code:

General
Format : Matroska
Format version : Version 4 / Version 2
File size : 1.21 GiB
Duration : 29 min 24 s
Overall bit rate : 5 914 kb/s
Encoded date : UTC 2018-04-13 19:30:33
Writing application : mkvmerge v21.0.0 ('Tardigrades Will Inherit The Earth') 64-bit
Writing library : libebml v1.3.5 + libmatroska v1.4.8

Video
ID : 1
Format : HEVC
Format/Info : High Efficiency Video Coding
Format profile : Main [email protected]@Main
Codec ID : V_MPEGH/ISO/HEVC
Duration : 29 min 24 s
Bit rate : 5 272 kb/s
Width : 1 920 pixels
Height : 1 080 pixels
Display aspect ratio : 16:9
Frame rate mode : Constant
Frame rate : 23.976 (24000/1001) FPS
Color space : YUV
Chroma subsampling : 4:2:0
Bit depth : 10 bits
Bits/(Pixel*Frame) : 0.106
Stream size : 1.08 GiB (89%)
Writing library : x265 2.7+1-2aa737a99f51:[Windows][GCC 8.0.1][64 bit] 10bit
Encoding settings : cpuid=1173503 / frame-threads=3 / numa-pools=12 / wpp / no-pmode / no-pme / no-psnr / no-ssim / log-level=2 / input-csp=1 / input-res=1920x1080 / interlace=0 / total-frames=42300 / level-idc=0 / high-tier=1 / uhd-bd=0 / ref=4 / no-allow-non-conformance / no-repeat-headers / annexb / no-aud / no-hrd / info / hash=0 / no-temporal-layers / open-gop / min-keyint=23 / keyint=250 / gop-lookahead=0 / bframes=8 / b-adapt=2 / b-pyramid / bframe-bias=0 / rc-lookahead=65 / lookahead-slices=4 / scenecut=40 / radl=0 / no-intra-refresh / ctu=64 / min-cu-size=8 / no-rect / no-amp / max-tu-size=32 / tu-inter-depth=1 / tu-intra-depth=1 / limit-tu=0 / rdoq-level=2 / dynamic-rd=0.00 / no-ssim-rd / signhide / no-tskip / nr-intra=0 / nr-inter=0 / no-constrained-intra / strong-intra-smoothing / max-merge=3 / limit-refs=3 / limit-modes / me=3 / subme=5 / merange=57 / temporal-mvp / weightp / weightb / no-analyze-src-pics / deblock=-1:-1 / sao / no-sao-non-deblock / rd=4 / no-early-skip / rskip / no-fast-intra / no-tskip-fast / no-cu-lossless / no-b-intra / no-splitrd-skip / rdpenalty=0 / psy-rd=1.65 / psy-rdoq=1.00 / no-rd-refine / no-lossless / cbqpoffs=0 / crqpoffs=0 / rc=crf / crf=22.0 / qcomp=0.60 / qpstep=4 / stats-write=0 / stats-read=0 / ipratio=1.40 / pbratio=1.30 / aq-mode=3 / aq-strength=1.00 / cutree / zone-count=0 / no-strict-cbr / qg-size=32 / no-rc-grain / qpmax=69 / qpmin=0 / no-const-vbv / sar=0 / overscan=0 / videoformat=5 / range=0 / colorprim=2 / transfer=2 / colormatrix=2 / chromaloc=0 / display-window=0 / max-cll=0,0 / min-luma=0 / max-luma=1023 / log2-max-poc-lsb=8 / vui-timing-info / vui-hrd-info / slices=1 / no-opt-qp-pps / no-opt-ref-list-length-pps / no-multi-pass-opt-rps / scenecut-bias=0.00 / no-opt-cu-delta-qp / aq-motion / no-hdr / no-hdr-opt / no-dhdr10-opt / analysis-reuse-level=5 / scale-factor=0 / refine-intra=0 / refine-inter=0 / refine-mv=0 / no-limit-sao / ctu-info=0 / no-lowpass-dct / refine-mv-type=0 / copy-pic=1
Default : Yes
Forced : No

Audio
ID : 2
Format : E-AC-3
Format/Info : Enhanced Audio Coding 3
Format settings, Endianness : Big
Codec ID : A_EAC3
Duration : 29 min 24 s
Bit rate mode : Constant
Bit rate : 640 kb/s
Channel(s) : 6 channels
Channel positions : Front: L C R, Side: L R, LFE
Sampling rate : 48.0 kHz
Frame rate : 187.500 FPS (256 spf)
Compression mode : Lossy
Stream size : 135 MiB (11%)
Language : English
Default : No
Forced : No

Subtitle #1
ID : 3
Format : UTF-8
Codec ID : S_TEXT/UTF8
Codec ID/Info : UTF-8 Plain Text
Duration : 29 min 20 s
Bit rate : 76 b/s
Count of elements : 579
Stream size : 16.4 KiB (0%)
Language : English
Default : No
Forced : No

Subtitle #2
ID : 4
Format : UTF-8
Codec ID : S_TEXT/UTF8
Codec ID/Info : UTF-8 Plain Text
Duration : 29 min 20 s
Bit rate : 84 b/s
Count of elements : 618
Stream size : 18.1 KiB (0%)
Title : SDH
Language : English
Default : No
Forced : No

Source Information

Code:

Release:
Atlanta.S02E07.Champagne.Papi.1080p.AMZN.WEB-DL.DDP5.1.H.264-NTb.mkv (2.96 GBs)


Note From QxR:

Quote:

Whilst we are happy for our releases to be re-posted on a platform we aren't on, please do so in an 'as-is' format. We ask that you do not create a new torrent, include all descriptions you see above including the QxR logo, tags, notes and screenshots. If you'd like to become a permanent poster on a website we don't post to, feel free to get in contact with a QxR member.




Related Torrents

torrent name size age seed leech
61.62 MB 50 seconds 330 171
55.31 MB 50 seconds 496 55
67.61 MB 50 seconds 728 253
58.08 MB 50 seconds 430 341
64.87 MB 50 seconds 519 332

Sharing Widget


Download torrent
1.2 GB
seeders:1214
leechers:386
Atlanta (2016) - S02E07 (1080p AMZN WEB-DL x265 HEVC 10bit EAC3 6 0 RZeroX) [QxR]



To share this torrent use the code below and insert it into comments, status messages, forum posts or your signature.

Torrent: Atlanta (2016) - S02E07 (1080p AMZN WEB-DL x265 HEVC 10bit EAC3 6 0 RZeroX) [QxR]

Comments

Latest Searches